<?xml version="1.0" standalone="no"?>
  <!DOCTYPE svg PUBLIC "-//W3C//DTD SVG 1.1//EN" "http://www.w3.org/Graphics/SVG/1.1/DTD/svg11.dtd" >
  <svg>
  <metadata>
  Created by font-carrier
  </metadata>
  <defs>
  <font id="iconfont" horiz-adv-x="1024" vert-adv-y="1024" >
    <font-face
      
      font-family="iconfont"
      
      font-weight="400"
      
      font-stretch="normal"
      
      units-per-em="1024"
      
      ascent="812"
      
      descent="-212"
      
    />
      <missing-glyph />

      
      <glyph glyph-name="x" unicode="&#x78;" horiz-adv-x="100"
        d="M20 20 L50 20 L50 -20 Z" />
      

      
      <glyph glyph-name="youtube_play" unicode="&#xE001;" d="M406.6798 167.4286L683.2329 310.2766 406.6798 454.8434V167.4286ZM512.4078 660.0091C727.8501 660.0091 870.6981 649.7326 870.6981 649.7326 890.7026 647.4286 934.6981 647.4286 973.5369 606.2857 973.5369 606.2857 1004.9518 575.4194 1014.0946 504.5806 1024.9563 421.7097 1024.3712 338.8754 1024.3712 338.8754V261.1611S1024.9563 178.2903 1014.0946 95.456C1004.9518 25.1657 973.5369-6.2491 973.5369-6.2491 934.6981-46.8069 890.6661-46.8069 870.6981-49.1109 870.6981-49.1109 727.8501-59.9726 512.4078-59.9726 246.1312-57.6686 164.3941-49.696 164.3941-49.696 141.5369-45.7097 90.1175-46.8434 51.2421-6.2491 51.2421-6.2491 19.8272 25.1657 10.6843 95.456-0.1774 178.3269 0.4078 261.1611 0.4078 261.1611V338.8754S-0.1774 421.7463 10.6843 504.5806C19.8272 575.4194 51.2421 606.2857 51.2421 606.2857 90.0809 647.4286 134.1129 647.4286 154.0809 649.7326 154.0809 649.7326 296.9289 660.0091 512.3712 660.0091Z"  horiz-adv-x="1024" vert-adv-y="1024"  />

      
      <glyph glyph-name="youtube_help" unicode="&#xE002;" d="M689.92 321.76L422.8267 475.7867A27.3067 27.3067 0 0 1 397.2267 475.7867 25.6 25.6 0 0 1 384 453.6V146.4A25.6 25.6 0 0 1 396.8 124.2133 26.0267 26.0267 0 0 1 409.6 120.8 28.5867 28.5867 0 0 1 422.4 124.2133L689.4933 277.3867A25.6 25.6 0 0 1 702.2933 299.5733 23.8933 23.8933 0 0 1 689.92 321.76ZM433.92 190.7733V409.2267L625.92 300ZM1002.6667 541.92A147.6267 147.6267 0 0 1 900.2667 644.32H900.2667C821.76 665.2267 525.2267 665.6533 512.4267 665.6533S203.9467 665.6533 124.5867 644.32A148.0533 148.0533 0 0 1 21.76 539.7867 1261.2267 1261.2267 0 0 1 0 300 1259.0933 1259.0933 0 0 1 22.1867 58.5067 148.9067 148.9067 0 0 1 125.0133-43.8933C203.0933-64.8 500.0533-65.2267 512.4267-65.2267S820.9067-65.2267 900.2667-43.8933A148.9067 148.9067 0 0 1 1003.52 61.0667 1319.2533 1319.2533 0 0 1 1024 300 1301.76 1301.76 0 0 1 1002.6667 541.92ZM953.6 72.5867A97.28 97.28 0 0 0 887.04 5.6C826.4533-10.6133 596.0533-14.0267 512.4267-14.0267S197.5467-10.6133 138.24 5.6A96.4267 96.4267 0 0 0 72.1067 69.6 1223.2533 1223.2533 0 0 0 51.2 300 1266.3467 1266.3467 0 0 0 71.2533 528.6933 98.1333 98.1333 0 0 0 138.24 594.8267C197.12 611.04 421.5467 614.4533 508.5867 614.4533H512C597.3333 614.4533 826.4533 611.04 886.1867 594.8267A94.72 94.72 0 0 0 952.7467 530.4 1231.36 1231.36 0 0 0 972.8 300 1288.1067 1288.1067 0 0 0 953.6 72.16Z"  horiz-adv-x="1024" vert-adv-y="1024"  />

      
      <glyph glyph-name="yes" unicode="&#xE003;" d="M882.56 396H621.44V588A192 192 0 0 1 429.44 780H384L240 396H141.44A96 96 0 0 1 45.44 300V-84A96 96 0 0 1 141.44-180H711.68A192 192 0 0 1 896-34.72L973.44 276.96A94.72 94.72 0 0 1 882.56 396ZM122.24-84V300A19.2 19.2 0 0 0 141.44 319.2H251.52V-103.2H141.44A19.2 19.2 0 0 0 122.24-84ZM901.12 295.52L823.68-16.16A115.84 115.84 0 0 0 711.68-103.2H327.68V419.68L434.56 703.2A115.2 115.2 0 0 0 544.64 588V319.2H882.56A19.84 19.84 0 0 0 901.76 300 10.88 10.88 0 0 0 901.12 295.52Z"  horiz-adv-x="1024" vert-adv-y="1024"  />

      
      <glyph glyph-name="x" unicode="&#xE004;" d="M457.6384 300.0043L212.8124 544.349 267.0647 598.7085 512 354.2549 756.9323 598.7085 811.1829 544.349 566.3573 300.0043 811.1829 55.6565 756.9323 1.2992 512 245.7493 267.0647 1.2992 212.8124 55.6565 457.6384 300.0043Z"  horiz-adv-x="1024" vert-adv-y="1024"  />

      
      <glyph glyph-name="user" unicode="&#xE005;" d="M512 253.28C380.8 253.28 273.28 360.16 273.28 492S380.8 730.72 512 730.72 750.72 623.2 750.72 492 643.2 253.28 512 253.28ZM512 666.72C416 666.72 337.28 588 337.28 492S416 317.28 512 317.28 686.72 395.36 686.72 492 608 666.72 512 666.72ZM847.36-130.72H176.64C150.4-130.72 126.72-117.92 111.36-95.52 94.72-71.2 90.88-39.84 101.12-12.32 152.32 124.64 321.28 220 512 220S871.68 124.64 922.88-11.68C933.12-39.2 929.28-70.56 912.64-94.88 897.28-117.28 872.96-130.72 847.36-130.72ZM512 156C347.52 156 202.88 77.92 160.64-34.08 157.44-42.4 158.72-51.36 163.84-58.4 165.76-61.6 170.24-66.08 176.64-66.08H847.36C853.76-66.08 858.24-60.96 860.16-58.4 865.28-51.36 865.92-42.4 863.36-34.08 821.12 77.28 676.48 156 512 156Z"  horiz-adv-x="1024" vert-adv-y="1024"  />

      
      <glyph glyph-name="training_new" unicode="&#xE006;" d="M972.8 659.68H550.4V732.64A38.4 38.4 0 1 1 473.6 732.64V659.68H51.2A38.4 38.4 0 0 1 51.2 582.88H97.92V100.96A91.52 91.52 0 0 1 192 9.44H284.16L168.96-105.12A37.76 37.76 0 0 1 168.96-159.52 37.12 37.12 0 0 1 222.72-159.52L392.32 9.44H631.68L801.28-159.52A37.12 37.12 0 0 1 855.04-159.52 37.76 37.76 0 0 1 855.04-105.12L739.84 9.44H832A91.52 91.52 0 0 1 923.52 100.96V582.88H970.24A38.4 38.4 0 0 1 970.24 659.68ZM849.28 100.96A14.72 14.72 0 0 0 834.56 86.24H192A14.72 14.72 0 0 0 177.28 100.96V582.88H849.28ZM313.6 388.32H537.6A38.4 38.4 0 0 1 537.6 465.12H313.6A38.4 38.4 0 1 1 313.6 388.32ZM313.6 209.12H710.4A38.4 38.4 0 0 1 710.4 285.92H313.6A38.4 38.4 0 1 1 313.6 209.12Z"  horiz-adv-x="1024" vert-adv-y="1024"  />

      
      <glyph glyph-name="training_fill" unicode="&#xE007;" d="M966.4 666.72H556.8V726.88A44.8 44.8 0 0 1 467.2 726.88V666.72H57.6A44.8 44.8 0 0 1 57.6 577.12H98.56A69.12 69.12 0 0 0 98.56 566.88V84.96A91.52 91.52 0 0 1 192-6.56H262.4L170.88-95.52A45.44 45.44 0 0 1 202.88-172.32 42.88 42.88 0 0 1 234.24-158.88L384-6.56H640L792.32-158.88A42.88 42.88 0 0 1 823.68-172.32 45.44 45.44 0 0 1 855.68-95.52L766.72-6.56H832A91.52 91.52 0 0 1 923.52 84.96V546.4H923.52V577.12H964.48A44.8 44.8 0 1 1 964.48 666.72ZM313.6 466.4H537.6A38.4 38.4 0 0 0 537.6 389.6H313.6A38.4 38.4 0 1 0 313.6 466.4ZM710.4 210.4H313.6A38.4 38.4 0 0 0 313.6 287.2H710.4A38.4 38.4 0 0 0 710.4 210.4Z"  horiz-adv-x="1024" vert-adv-y="1024"  />

      
      <glyph glyph-name="time_2" unicode="&#xE008;" d="M512 748A448 448 0 1 1 960 300 448 448 0 0 1 512 748ZM512-71.2A371.2 371.2 0 1 0 883.2 300 371.2 371.2 0 0 0 512-71.2ZM716.8 324.32H536.32V524.64A38.4 38.4 0 0 1 459.52 524.64V285.92A38.4 38.4 0 0 1 497.92 247.52H716.8A38.4 38.4 0 1 1 716.8 324.32Z"  horiz-adv-x="1024" vert-adv-y="1024"  />

      
      <glyph glyph-name="service_2" unicode="&#xE009;" d="M912.64 454.88H872.96A368.64 368.64 0 0 1 151.04 454.88H111.36A85.76 85.76 0 0 1 25.6 369.76V220A85.76 85.76 0 0 1 111.36 134.24H220.16V380A291.84 291.84 0 0 0 803.84 380V113.76A185.6 185.6 0 0 0 618.24-71.84H490.24A38.4 38.4 0 0 1 490.24-148.64H618.24A263.04 263.04 0 0 1 880.64 113.76V134.24H912.64A85.76 85.76 0 0 1 998.4 220V369.76A85.76 85.76 0 0 1 912.64 454.88ZM102.4 220V369.76A8.32 8.32 0 0 0 111.36 378.08H143.36V211.04H111.36A8.96 8.96 0 0 0 102.4 220ZM921.6 220A8.96 8.96 0 0 0 912.64 211.04H880.64V378.08H912.64A8.32 8.32 0 0 0 921.6 369.76ZM685.44 236A38.4 38.4 0 0 1 608.64 236C608.64 202.08 564.48 172 512 172S415.36 202.08 415.36 236A38.4 38.4 0 0 1 376.96 274.4 38.4 38.4 0 0 1 338.56 236 160.64 160.64 0 0 1 512 93.92 160.64 160.64 0 0 1 685.44 236Z"  horiz-adv-x="1024" vert-adv-y="1024"  />

      
      <glyph glyph-name="search1" unicode="&#xE00A;" d="M684.416 135.4773A42.4533 42.4533 0 0 1 676.48 127.5413 297.3867 297.3867 0 0 0 469.3333 44C386.8587 44 312.2347 77.3653 258.1333 131.4667S170.6667 260.192 170.6667 342.6667 204.032 499.7653 258.1333 553.8667 386.8587 641.3333 469.3333 641.3333 626.432 607.968 680.5333 553.8667 768 425.1413 768 342.6667A297.4293 297.4293 0 0 0 684.416 135.4773ZM926.1653-53.8347L769.3653 102.9653A382.592 382.592 0 0 1 853.3333 342.6667C853.3333 448.6933 810.3253 544.736 740.864 614.1973S575.36 726.6667 469.3333 726.6667 267.264 683.6587 197.8027 614.1973 85.3333 448.6933 85.3333 342.6667 128.3413 140.5973 197.8027 71.136 363.3067-41.3333 469.3333-41.3333A382.592 382.592 0 0 1 709.0347 42.6347L865.8347-114.1653A42.624 42.624 0 1 1 926.1653-53.8347Z"  horiz-adv-x="1024" vert-adv-y="1024"  />

      
      <glyph glyph-name="right" unicode="&#xE00B;" d="M384.0064 701.6772L755.5115 330.1739C772.1728 313.5125 772.1728 286.496 755.5115 269.8347L384.0064-101.6683 323.6668-41.3291 664.9984 300.0043 323.6668 641.3372 384.0064 701.6772Z"  horiz-adv-x="1024" vert-adv-y="1024"  />

      
      <glyph glyph-name="no" unicode="&#xE00C;" d="M882.56 204H621.44V12A192 192 0 0 0 429.44-180H384L240 204H141.44A96 96 0 0 0 45.44 300V684A96 96 0 0 0 141.44 780H711.68A192 192 0 0 0 896 634.72L973.44 323.04A94.72 94.72 0 0 0 882.56 204ZM122.24 684V300A19.2 19.2 0 0 1 141.44 280.8H251.52V703.2H141.44A19.2 19.2 0 0 1 122.24 684ZM901.12 304.48L823.68 616.16A115.84 115.84 0 0 1 711.68 703.2H327.68V180.32L434.56-103.2A115.2 115.2 0 0 1 544.64 12V280.8H882.56A19.84 19.84 0 0 1 901.76 300 10.88 10.88 0 0 1 901.12 304.48Z"  horiz-adv-x="1024" vert-adv-y="1024"  />

      
      <glyph glyph-name="more_new" unicode="&#xE00D;" d="M561.3269 652.969L880.768 326.8715C895.3941 311.9424 895.3941 288.0576 880.768 273.1285L561.3269-52.9685 506.4619 0.7744 761.9669 261.6H132.2709V338.4H761.9669L506.4619 599.2256 561.3269 652.969Z"  horiz-adv-x="1024" vert-adv-y="1024"  />

      
      <glyph glyph-name="menu" unicode="&#xE00E;" d="M128 257.3333H896A42.6667 42.6667 0 0 1 896 342.6667H128A42.6667 42.6667 0 0 1 128 257.3333ZM128 513.3333H896A42.6667 42.6667 0 0 1 896 598.6667H128A42.6667 42.6667 0 0 1 128 513.3333ZM128 1.3333H896A42.6667 42.6667 0 0 1 896 86.6667H128A42.6667 42.6667 0 0 1 128 1.3333Z"  horiz-adv-x="1024" vert-adv-y="1024"  />

      
      <glyph glyph-name="left" unicode="&#xE00F;" d="M700.3392 641.3372L359.0063 300.0043 700.3392-41.3291 640-101.6683 268.4966 269.8347C251.8345 286.496 251.8345 313.5125 268.4966 330.1739L640 701.6772 700.3392 641.3372Z"  horiz-adv-x="1024" vert-adv-y="1024"  />

      
      <glyph glyph-name="language" unicode="&#xE010;" d="M512 739.04A439.04 439.04 0 1 1 951.04 300 439.68 439.68 0 0 1 512 739.04ZM878.72 335.2H700.16A741.76 741.76 0 0 1 629.12 649.44 368 368 0 0 0 878.72 335.2ZM512-68.64C466.56-68.64 401.92 59.36 394.88 264.8H629.12C622.08 60.64 557.44-68.64 512-68.64ZM394.88 335.2C401.92 539.36 466.56 668.64 512 668.64S622.08 540.64 629.12 335.2ZM394.88 649.44A741.76 741.76 0 0 1 323.84 335.2H145.28A368 368 0 0 0 394.88 649.44ZM145.28 265.44H323.84A741.76 741.76 0 0 1 394.88-48.8 368 368 0 0 0 145.28 264.8ZM629.12-48.8A741.76 741.76 0 0 1 700.16 265.44H878.72A368 368 0 0 0 629.12-49.44Z"  horiz-adv-x="1024" vert-adv-y="1024"  />

      
      <glyph glyph-name="instagram1" unicode="&#xE011;" d="M298.6667 769.3333C227.968 769.3333 163.9253 740.6187 117.632 694.368S42.6667 584.032 42.6667 513.3333V86.6667C42.6667 15.968 71.3813-48.0747 117.632-94.368S227.968-169.3333 298.6667-169.3333H725.3333C796.032-169.3333 860.0747-140.6187 906.368-94.368S981.3333 15.968 981.3333 86.6667V513.3333C981.3333 584.032 952.6187 648.0747 906.368 694.368S796.032 769.3333 725.3333 769.3333ZM298.6667 684H725.3333C772.48 684 815.0613 664.928 845.9947 633.9947S896 560.48 896 513.3333V86.6667C896 39.52 876.928-3.0613 845.9947-33.9947S772.48-84 725.3333-84H298.6667C251.52-84 208.9387-64.928 178.0053-33.9947S128 39.52 128 86.6667V513.3333C128 560.48 147.072 603.0613 178.0053 633.9947S251.52 684 298.6667 684ZM724.864 333.152A215.6373 215.6373 0 0 1 673.92 442.6773 211.712 211.712 0 0 1 545.536 512.8213 209.2373 209.2373 0 0 1 482.5173 512.9067C424.2347 504.288 374.9547 472.7573 342.4853 428.9813S294.144 328.8427 302.8053 270.6027 342.9547 163.04 386.7307 130.5707 486.8693 82.2293 545.1093 90.8907 652.672 131.04 685.1413 174.816 733.4827 274.9547 724.8213 333.1947ZM640.4693 320.608C645.6747 285.6213 636.2027 251.9573 616.6613 225.5893S567.5947 180.4053 532.6507 175.2427 464 179.5093 437.632 199.0507 392.448 248.1173 387.2853 283.0613 391.552 351.712 411.0933 378.08 460.16 423.264 495.104 428.4267A126.976 126.976 0 0 0 609.792 386.4427C625.792 368.1813 636.672 345.3547 640.512 320.608ZM746.6667 492A42.6667 42.6667 0 1 1 746.6667 577.3333 42.6667 42.6667 0 0 1 746.6667 492Z"  horiz-adv-x="1024" vert-adv-y="1024"  />

      
      <glyph glyph-name="help_circle" unicode="&#xE012;" d="M417.446 390.5877C417.446 423.8438 452.7232 462.4188 511.9701 462.4188 571.2171 462.4188 606.4939 423.8438 606.4939 390.5877 606.4939 367.2811 600.5803 356.6997 594.9781 350.1675 587.6352 341.6043 577.4891 335.6608 559.1851 325.0581 542.8608 315.6032 519.8805 302.2485 502.2379 279.1787 483.6523 254.88 473.5701 223.6565 473.5701 182.5003H550.3701C550.3701 210.4171 556.9024 224.2368 563.2384 232.5227 570.5216 242.0373 580.7744 248.8128 597.6789 258.6005L601.1733 260.6144C616.0427 269.1605 637.0133 281.2096 653.2736 300.1707 672.5931 322.6987 683.2939 351.8699 683.2939 390.5877 683.2939 479.0895 599.5477 539.2188 511.9701 539.2188 424.3921 539.2188 340.646 479.0895 340.646 390.5877V373.7835H417.446V390.5877ZM473.5701 123.5477V60.7936H550.3701V123.5477H473.5701ZM512 748C264.5764 748 64 547.4236 64 300 64 52.576 264.5764-148 512-148 759.424-148 960 52.576 960 300 960 547.4236 759.424 748 512 748ZM140.8 300C140.8 505.0082 306.9918 671.2 512 671.2 717.0091 671.2 883.2 505.0082 883.2 300 883.2 94.9909 717.0091-71.2 512-71.2 306.9918-71.2 140.8 94.9909 140.8 300Z"  horiz-adv-x="1024" vert-adv-y="1024"  />

      
      <glyph glyph-name="facebook" unicode="&#xE013;" d="M767.4149 805.1611V654.304H677.7051C607.4149 654.304 594.2857 620.5851 594.2857 572.0183V464.0229H761.7097L739.4377 294.88H594.2857V-138.8206H419.4377V294.88H273.7371V464.0229H419.4377V588.5851C419.4377 733.152 508.0137 812 637.1474 812 698.8434 812 752.0183 807.4286 767.4514 805.1611Z"  horiz-adv-x="1024" vert-adv-y="1024"  />

      
      <glyph glyph-name="date" unicode="&#xE014;" d="M512-140.96C268.8-140.96 71.04 56.8 71.04 300S268.8 740.96 512 740.96 952.96 543.2 952.96 300 755.2-140.96 512-140.96ZM512 676.96C304 676.96 135.04 508 135.04 300 135.04 92 304-76.96 512-76.96S888.96 92 888.96 300C888.96 508 720 676.96 512 676.96ZM723.84 344.8H563.84V504.8C563.84 522.72 549.76 536.8 531.84 536.8 513.92 536.8 499.84 522.72 499.84 504.8V312.8C499.84 294.88 513.92 280.8 531.84 280.8H723.84C741.76 280.8 755.84 294.88 755.84 312.8 755.84 330.08 741.12 344.8 723.84 344.8Z"  horiz-adv-x="1024" vert-adv-y="1024"  />

      
      <glyph glyph-name="copy" unicode="&#xE015;" d="M105.6043 107.9957V619.9957C105.6043 694.2229 165.7771 754.3957 240.0043 754.3957H576.0043V677.5957H240.0043C208.1924 677.5957 182.4043 651.8076 182.4043 619.9957V107.9957H105.6043ZM336.0043 594.3953C297.1234 594.3953 265.6043 562.8762 265.6043 523.9953V-52.0043C265.6043-90.8864 297.1234-122.4043 336.0043-122.4043H800.0043C838.8864-122.4043 870.4043-90.8864 870.4043-52.0043V523.9953C870.4043 562.8762 838.8864 594.3953 800.0043 594.3953H336.0043ZM342.4043-45.6043V517.5953H793.6043V-45.6043H342.4043Z"  horiz-adv-x="1024" vert-adv-y="1024"  />

      
      <glyph glyph-name="contact_us_nav" unicode="&#xE016;" d="M896 436.96H846.5067A341.3333 341.3333 0 0 1 177.4933 436.96H130.1333A70.8267 70.8267 0 0 1 59.7333 366.1333V223.6267A70.4 70.4 0 0 1 130.1333 153.2267H223.1467V376.3733A288.8533 288.8533 0 1 0 800.8533 376.3733V122.5067A187.7333 187.7333 0 0 0 613.5467-65.2267H490.24A25.6 25.6 0 0 1 490.24-116.4267H613.5467A238.9333 238.9333 0 0 1 853.3333 122.5067V153.2267H896A70.4 70.4 0 0 1 966.4 223.6267V366.1333A70.8267 70.8267 0 0 1 896 436.96ZM113.0667 223.6267V366.1333A19.6267 19.6267 0 0 0 130.1333 385.3333H170.6667V204H128A19.2 19.2 0 0 0 110.9333 223.6267ZM915.2 223.6267A19.2 19.2 0 0 0 896 204.4267H853.3333V385.3333H896A19.6267 19.6267 0 0 0 915.2 365.7067ZM666.4533 241.5467A25.6 25.6 0 0 1 615.2533 241.5467C615.2533 198.88 568.7467 166.0267 512 166.0267S408.7467 199.7333 408.7467 241.5467A25.6 25.6 0 0 1 357.5467 241.5467C357.5467 171.5733 426.6667 113.5467 512 113.5467S666.4533 172 666.4533 241.5467Z"  horiz-adv-x="1024" vert-adv-y="1024"  />

      
      <glyph glyph-name="contact_us" unicode="&#xE017;" d="M928.8533 460H886.1867A384 384 0 0 1 137.8133 460H95.1467A87.4667 87.4667 0 0 1 9.8133 372.5333V214.6667A87.4667 87.4667 0 0 1 95.1467 129.3333H206.9333V383.2A305.0667 305.0667 0 1 0 817.0667 383.2V106.2933A194.56 194.56 0 0 0 622.5067-88.2667H488.1067A38.4 38.4 0 0 1 488.1067-165.0667H622.5067A271.36 271.36 0 0 1 896 106.2933V129.3333H930.9867A87.4667 87.4667 0 0 1 1016.32 214.6667V372.5333A87.4667 87.4667 0 0 1 928.8533 460ZM85.3333 214.6667V372.5333A11.0933 11.0933 0 0 0 96 383.2H130.9867V206.1333H95.1467A10.6667 10.6667 0 0 0 85.3333 214.6667ZM938.6667 214.6667A10.6667 10.6667 0 0 0 928 204H896V383.2H930.9867A11.0933 11.0933 0 0 0 941.6533 372.5333ZM691.2 236A38.4 38.4 0 0 1 614.4 236C614.4 197.1733 567.4667 164.32 512 164.32S409.6 197.1733 409.6 236A38.4 38.4 0 1 1 332.8 236C332.8 154.08 413.44 86.6667 512 86.6667S691.2 154.08 691.2 236Z"  horiz-adv-x="1024" vert-adv-y="1024"  />

      
      <glyph glyph-name="cheveron_up" unicode="&#xE018;" d="M481.8347 543.5034C498.5003 560.1655 525.5125 560.1655 542.1781 543.5034L913.6811 172 853.3419 111.6608 512.0085 452.9937 170.6731 111.6608 110.3334 172 481.8347 543.5034Z"  horiz-adv-x="1024" vert-adv-y="1024"  />

      
      <glyph glyph-name="cheveron_right" unicode="&#xE019;" d="M384.0064 701.6772L755.5115 330.1739C772.1728 313.5125 772.1728 286.496 755.5115 269.8347L384.0064-101.6683 323.6668-41.3291 664.9984 300.0043 323.6668 641.3372 384.0064 701.6772Z"  horiz-adv-x="1024" vert-adv-y="1024"  />

      
      <glyph glyph-name="cheveron_down" unicode="&#xE01A;" d="M913.6811 428.0038L542.1781 56.5013C525.5125 39.84 498.5003 39.84 481.8347 56.5013L110.3334 428.0038 170.6731 488.3439 512.0085 147.0101 853.3419 488.3439 913.6811 428.0038Z"  horiz-adv-x="1024" vert-adv-y="1024"  />

      
      <glyph glyph-name="chevron_right1" unicode="&#xE01B;" d="M384.0064 701.6772L755.5115 330.1739C772.1728 313.5125 772.1728 286.496 755.5115 269.8347L384.0064-101.6683 323.6668-41.3291 664.9984 300.0043 323.6668 641.3372 384.0064 701.6772Z"  horiz-adv-x="1024" vert-adv-y="1024"  />

      
      <glyph glyph-name="chevron_left" unicode="&#xE01C;" d="M700.3392 641.3372L359.0063 300.0043 700.3392-41.3291 640-101.6683 268.4966 269.8347C251.8345 286.496 251.8345 313.5125 268.4966 330.1739L640 701.6772 700.3392 641.3372Z"  horiz-adv-x="1024" vert-adv-y="1024"  />

      
      <glyph glyph-name="chevron_left1" unicode="&#xE01D;" d="M700.3392 641.3372L359.0063 300.0043 700.3392-41.3291 640-101.6683 268.4966 269.8347C251.8345 286.496 251.8345 313.5125 268.4966 330.1739L640 701.6772 700.3392 641.3372Z"  horiz-adv-x="1024" vert-adv-y="1024"  />

      
      <glyph glyph-name="chevron_down" unicode="&#xE01E;" d="M913.6811 428.0038L542.1781 56.5013C525.5125 39.84 498.5003 39.84 481.8347 56.5013L110.3334 428.0038 170.6731 488.3439 512.0085 147.0101 853.3419 488.3439 913.6811 428.0038Z"  horiz-adv-x="1024" vert-adv-y="1024"  />

      
      <glyph glyph-name="checkmark_outline" unicode="&#xE01F;" d="M155.3971-62.901A507.3436 507.3436 0 0 0 0.039 303.1293C0.039 584.1783 227.8602 811.9995 508.9092 811.9995A507.2418 507.2418 0 0 0 874.7869 656.7941L874.9395 656.6414A506.9874 506.9874 0 0 0 1017.7794 303.1293C1017.7794 22.0803 789.9582-205.7409 508.9092-205.7409 371.5143-205.7409 246.7902-151.2918 155.2444-62.7484L155.3971-62.901ZM803.1888 8.8497A407.2997 407.2997 0 1 1 227.1478 584.8907 407.2997 407.2997 0 1 1 803.1888 8.8497ZM347.2411 333L464.2813 215.451 683.0955 434.2651 754.3373 362.0056 464.2813 72.9673 275.9993 261.2493 347.2411 333.5088Z"  horiz-adv-x="1024" vert-adv-y="1024"  />

      
      <glyph glyph-name="check_circle" unicode="&#xE020;" d="M512-148C759.424-148 960 52.576 960 300 960 547.4236 759.424 748 512 748 264.5764 748 64 547.4236 64 300 64 52.576 264.5764-148 512-148ZM475.0251 128.7915C460.0277 113.8027 435.7163 113.8069 420.7245 128.8L268.7292 280.8043 323.0366 335.1104 447.8848 210.2507 692.9365 455.1693 747.2256 400.8491 475.0251 128.7915Z"  horiz-adv-x="1024" vert-adv-y="1024"  />

      
      <glyph glyph-name="caret_down" unicode="&#xE021;" d="M546.1291 132.1792C529.0624 109.4208 494.9291 109.4208 477.8624 132.1792L307.194 359.7333C286.0988 387.8609 306.1683 428 341.3274 428L682.6624 428C717.8197 428 737.8901 387.8609 716.7957 359.7333L546.1291 132.1792Z"  horiz-adv-x="1024" vert-adv-y="1024"  />

      
      <glyph glyph-name="cancel_2" unicode="&#xE022;" d="M457.6384 300.0043L212.8124 544.349 267.0647 598.7085 512 354.2549 756.9323 598.7085 811.1829 544.349 566.3573 300.0043 811.1829 55.6565 756.9323 1.2992 512 245.7493 267.0647 1.2992 212.8124 55.6565 457.6384 300.0043Z"  horiz-adv-x="1024" vert-adv-y="1024"  />

      
      <glyph glyph-name="chevron_down1" unicode="&#xE023;" d="M913.6811 428.0038L542.1781 56.5013C525.5125 39.84 498.5003 39.84 481.8347 56.5013L110.3334 428.0038 170.6731 488.3439 512.0085 147.0101 853.3419 488.3439 913.6811 428.0038Z"  horiz-adv-x="1024" vert-adv-y="1024"  />

      
      <glyph glyph-name="back_to_top_2" unicode="&#xE024;" d="M938.6667 535.9467H85.3333A42.6667 42.6667 0 0 0 85.3333 621.28H938.6667A42.6667 42.6667 0 0 0 938.6667 535.9467ZM876.3733-21.28A42.6667 42.6667 0 0 0 846.5067-8.9067L512 325.6 177.4933-8.9067A42.6667 42.6667 0 0 0 117.3333 51.2533L481.7067 416.0533A42.6667 42.6667 0 0 0 542.2933 416.0533L906.6667 51.2533A42.6667 42.6667 0 0 0 906.6667-8.9067 42.6667 42.6667 0 0 0 876.3733-21.28Z"  horiz-adv-x="1024" vert-adv-y="1024"  />

      
      <glyph glyph-name="check" unicode="&#xE025;" d="M512-148A448 448 0 0 0 64 300 448 448 0 0 0 512 748 448 448 0 0 0 960 300 448 448 0 0 0 512-148ZM512 684A384 384 0 1 1 896 300 384 384 0 0 1 512 684ZM320.6042 357.1899L501.6235 176.1705 456.3687 130.9157 275.3494 311.935ZM748.4331 423.5756L455.6343 130.7768 410.3795 176.0316 703.1782 468.8304Z"  horiz-adv-x="1024" vert-adv-y="1024"  />

      
      <glyph glyph-name="bigseller_logo_standard" unicode="&#xE026;" d="M638.4097 615.6997C638.4097 622.8995 634.4105 629.2995 627.2101 633.2996L574.8106 663.6995C557.2085 673.6993 530.009 673.6993 512.8105 663.6995L244.4124 508.902C226.8125 498.9009 213.2127 474.8995 213.2127 454.9004V144.9031C213.2127 124.9039 226.8125 101.3031 244.4124 90.9045L296.8119 60.9042C300.812 58.5041 304.411 57.7031 308.4133 57.7031 311.6114 57.7031 314.8126 58.5041 317.6133 60.1032 323.6121 63.7049 327.2108 70.5048 327.2108 78.5032V402.5009C327.2108 414.101 336.0103 429.7004 346.4119 435.7023L627.6106 598.0998C634.4105 602.4998 638.4097 608.8998 638.4097 615.6997ZM848.0077 431.703C844.8096 431.703 841.6084 430.902 838.4072 429.7004H838.0097L572.4104 276.9016 564.412 272.1014C558.8106 268.9032 552.8118 267.3041 546.4124 267.3041 527.2113 267.3041 511.2114 282.503 511.2114 301.3035 511.2114 313.7018 518.4118 325.3019 529.6115 331.3038L539.6095 336.5016V336.9021L809.6085 492.902C816.809 496.9013 820.8082 503.3006 820.8082 510.5011 820.8082 517.7009 816.809 524.1008 809.6085 528.101L745.2083 565.3004C734.8098 571.3004 718.8098 571.3004 708.0107 565.3004L414.4108 395.701C404.0123 389.7021 396.0108 375.7018 396.0108 363.7011V232.5036C396.0108 220.5029 404.0123 206.5026 414.4108 200.5038L522.4111 138.1032C536.0108 130.1047 553.2123 130.5052 566.0111 138.9042L709.6098 221.7045 710.8084 222.5025C716.0092 225.3032 722.011 226.9023 728.4104 226.9023 747.6085 226.9023 763.6084 211.7034 763.6084 192.9028 763.6084 180.1041 756.408 168.5039 744.8108 162.5051L555.2119 52.9058 552.4113 51.3037C546.81 48.1055 539.6095 48.1055 534.4117 51.7042L426.4115 114.1048C419.2111 118.104 411.6132 118.5045 405.6113 114.9028 399.6125 111.3041 396.0108 104.5042 396.0108 96.5058V25.3057C396.0108 13.305 404.0123-0.6953 414.4108-6.6941L512.8105-63.4934C521.61-68.6942 532.8096-71.0943 544.0123-71.0943 555.2119-71.0943 566.4116-68.6942 575.2111-63.4934L843.608 91.305C861.207 101.3031 874.8098 124.9039 874.8098 145.3036V405.3015C874.4093 420.1029 862.4086 431.703 848.0077 431.703ZM3433.4627 390.988C3358.2363 390.988 3347.0036 334.4779 3347.0036 334.4779V390.1599H3289.2436V80.5842H3347.0036V229.7601C3347.0036 263.8349 3359.0795 290.4291 3373.6249 311.2052 3403.1072 353.5916 3455.055 334.4779 3463.7882 328.2441V386.4196C3456.7113 389.3287 3446.7433 390.988 3433.4627 390.988ZM1382.6996 315.7767C1407.2189 338.2151 1419.2708 368.134 1419.2708 404.7022 1419.2708 442.9328 1405.9722 472.8487 1379.7935 493.6278 1355.2741 511.0793 1325.7708 519.8056 1290.8649 519.8056H1036.5466V80.5842H1280.0598C1318.2903 80.5842 1351.5339 89.3114 1379.7935 106.7628 1414.6994 131.2792 1432.1508 167.0163 1432.1508 213.971 1432.5664 257.6012 1415.9461 291.2603 1382.6996 315.7767ZM1099.7091 457.0596H1290.8649C1334.498 457.0596 1356.5209 439.6081 1356.5209 404.7022 1356.5209 361.0721 1326.602 339.4618 1267.5923 339.4618H1099.7091V457.0596ZM1280.4753 143.3311H1099.7091V279.2114H1304.1605C1321.615 279.2114 1336.5759 273.8089 1348.6248 263.4193 1364.417 251.3704 1372.313 234.7471 1372.313 213.5555 1372.313 166.6007 1341.9755 143.3311 1280.4753 143.3311ZM1482.8489 80.5842H1545.5988V391.8192H1482.8489V80.5842ZM1482.8489 457.0596H1545.5988V519.8056H1482.8489V457.0596ZM1619.1508 341.9553C1598.3717 315.7767 1587.5696 284.611 1587.5696 247.6302 1587.5696 211.062 1597.9561 179.4807 1619.1508 153.302 1646.9918 120.0615 1688.1315 103.4382 1742.1542 103.4382H1826.0958C1826.0958 65.2106 1805.3167 46.0938 1763.3459 46.0938H1624.5534V-16.2345H1763.3459C1847.2875-16.2345 1889.2583 17.8373 1889.2583 85.5712V391.8192H1742.5698C1688.1315 391.8192 1647.4074 375.1989 1619.1508 341.9553ZM1826.5114 331.5688V164.1072H1747.9723C1711.4041 164.1072 1685.2224 173.6656 1669.4333 192.7793 1655.3035 208.5685 1648.6542 226.8541 1648.6542 247.6302 1648.6542 270.0686 1655.7191 288.7668 1669.4333 302.481 1685.2224 321.5948 1711.4041 331.1532 1747.9723 331.1532H1826.5114V331.5688ZM2266.1643 318.2701C2239.9856 335.7246 2208.4044 344.4488 2171.8362 344.4488H2077.505C2049.664 344.4488 2027.6381 349.8514 2011.846 360.2409 1997.7192 370.6275 1991.0699 384.7573 1991.0699 402.2087 1991.0699 438.777 2017.2486 457.0596 2069.6089 457.0596H2297.7486V519.8056H2069.6089C2034.703 519.8056 2004.7841 512.7413 1980.6803 499.0274 1945.7744 478.2513 1928.32 445.8389 1928.32 402.2087 1928.32 361.9033 1944.1121 331.5688 1975.6934 310.7897 2003.5374 291.6759 2037.6121 282.1205 2077.9206 282.1205H2172.2517C2226.2714 282.1205 2253.2843 261.3414 2253.2843 219.3736 2253.2843 189.8703 2245.3882 168.6786 2229.5961 156.6267 2215.4693 147.9025 2193.859 143.7467 2163.9401 143.7467H1938.7095V80.9998H2163.9401C2265.3331 80.9998 2316.0312 127.1234 2316.0312 219.7892 2316.0312 262.5881 2299.4109 295.8317 2266.1643 318.2701ZM2514.2489 407.1957C2461.8915 407.1957 2421.5831 388.082 2393.739 349.8514 2370.885 320.3481 2359.6643 283.7798 2359.6643 240.1497 2359.6643 133.7727 2414.5182 80.5842 2524.6384 80.5842H2650.5508V143.3311H2524.6384C2491.3949 143.3311 2466.8785 147.4869 2451.0864 156.2111 2435.2943 166.6007 2425.7389 184.0521 2422.4142 208.5685H2658.4469V239.7341C2658.4469 277.9647 2648.8885 312.0364 2629.7747 341.5397 2605.2554 385.5885 2567.0248 407.1957 2514.2489 407.1957ZM2422.8298 271.3154C2433.2164 319.9325 2463.9694 344.4488 2514.6645 344.4488 2556.6353 344.4488 2582.817 319.9325 2593.2065 271.3154H2422.8298ZM2710.3917 80.5842H2770.6451V519.8056H2710.3917V80.5842ZM2829.6548 80.5842H2889.9082V519.8056H2829.6548V80.5842ZM3094.3717 407.1957C3042.0023 407.1957 3001.6938 388.082 2973.8498 349.8514 2950.9958 320.3481 2939.7751 283.7798 2939.7751 240.1497 2939.7751 133.7727 2994.6289 80.5842 3104.7612 80.5842H3230.6706V143.3311H3104.7612C3071.5146 143.3311 3047.0013 147.4869 3031.1911 156.2111 3015.411 166.6007 3005.8496 184.0521 3002.525 208.5685H3238.5607V239.7341C3238.5607 277.9647 3229.0143 312.0364 3209.8915 341.5397 3184.9566 385.5885 3146.711 407.1957 3094.3717 407.1957ZM3002.525 271.3154C3012.9115 319.9325 3043.6586 344.4488 3094.3717 344.4488 3136.3214 344.4488 3162.5211 319.9325 3172.9107 271.3154H3002.525ZM3433.4627 390.988C3358.2363 390.988 3347.0036 334.4779 3347.0036 334.4779V390.1599H3289.2436V80.5842H3347.0036V229.7601C3347.0036 263.8349 3359.0795 290.4291 3373.6249 311.2052 3403.1072 353.5916 3455.055 334.4779 3463.7882 328.2441V386.4196C3456.7113 389.3287 3446.7433 390.988 3433.4627 390.988ZM1382.6996 315.7767C1407.2189 338.2151 1419.2708 368.134 1419.2708 404.7022 1419.2708 442.9328 1405.9722 472.8487 1379.7935 493.6278 1355.2741 511.0793 1325.7708 519.8056 1290.8649 519.8056H1036.5466V80.5842H1280.0598C1318.2903 80.5842 1351.5339 89.3114 1379.7935 106.7628 1414.6994 131.2792 1432.1508 167.0163 1432.1508 213.971 1432.5664 257.6012 1415.9461 291.2603 1382.6996 315.7767ZM1099.7091 457.0596H1290.8649C1334.498 457.0596 1356.5209 439.6081 1356.5209 404.7022 1356.5209 361.0721 1326.602 339.4618 1267.5923 339.4618H1099.7091V457.0596ZM1280.4753 143.3311H1099.7091V279.2114H1304.1605C1321.615 279.2114 1336.5759 273.8089 1348.6248 263.4193 1364.417 251.3704 1372.313 234.7471 1372.313 213.5555 1372.313 166.6007 1341.9755 143.3311 1280.4753 143.3311ZM1482.8489 80.5842H1545.5988V391.8192H1482.8489V80.5842ZM1482.8489 457.0596H1545.5988V519.8056H1482.8489V457.0596ZM1619.1508 341.9553C1598.3717 315.7767 1587.5696 284.611 1587.5696 247.6302 1587.5696 211.062 1597.9561 179.4807 1619.1508 153.302 1646.9918 120.0615 1688.1315 103.4382 1742.1542 103.4382H1826.0958C1826.0958 65.2106 1805.3167 46.0938 1763.3459 46.0938H1624.5534V-16.2345H1763.3459C1847.2875-16.2345 1889.2583 17.8373 1889.2583 85.5712V391.8192H1742.5698C1688.1315 391.8192 1647.4074 375.1989 1619.1508 341.9553ZM1826.5114 331.5688V164.1072H1747.9723C1711.4041 164.1072 1685.2224 173.6656 1669.4333 192.7793 1655.3035 208.5685 1648.6542 226.8541 1648.6542 247.6302 1648.6542 270.0686 1655.7191 288.7668 1669.4333 302.481 1685.2224 321.5948 1711.4041 331.1532 1747.9723 331.1532H1826.5114V331.5688ZM2266.1643 318.2701C2239.9856 335.7246 2208.4044 344.4488 2171.8362 344.4488H2077.505C2049.664 344.4488 2027.6381 349.8514 2011.846 360.2409 1997.7192 370.6275 1991.0699 384.7573 1991.0699 402.2087 1991.0699 438.777 2017.2486 457.0596 2069.6089 457.0596H2297.7486V519.8056H2069.6089C2034.703 519.8056 2004.7841 512.7413 1980.6803 499.0274 1945.7744 478.2513 1928.32 445.8389 1928.32 402.2087 1928.32 361.9033 1944.1121 331.5688 1975.6934 310.7897 2003.5374 291.6759 2037.6121 282.1205 2077.9206 282.1205H2172.2517C2226.2714 282.1205 2253.2843 261.3414 2253.2843 219.3736 2253.2843 189.8703 2245.3882 168.6786 2229.5961 156.6267 2215.4693 147.9025 2193.859 143.7467 2163.9401 143.7467H1938.7095V80.9998H2163.9401C2265.3331 80.9998 2316.0312 127.1234 2316.0312 219.7892 2316.0312 262.5881 2299.4109 295.8317 2266.1643 318.2701ZM2514.2489 407.1957C2461.8915 407.1957 2421.5831 388.082 2393.739 349.8514 2370.885 320.3481 2359.6643 283.7798 2359.6643 240.1497 2359.6643 133.7727 2414.5182 80.5842 2524.6384 80.5842H2650.5508V143.3311H2524.6384C2491.3949 143.3311 2466.8785 147.4869 2451.0864 156.2111 2435.2943 166.6007 2425.7389 184.0521 2422.4142 208.5685H2658.4469V239.7341C2658.4469 277.9647 2648.8885 312.0364 2629.7747 341.5397 2605.2554 385.5885 2567.0248 407.1957 2514.2489 407.1957ZM2422.8298 271.3154C2433.2164 319.9325 2463.9694 344.4488 2514.6645 344.4488 2556.6353 344.4488 2582.817 319.9325 2593.2065 271.3154H2422.8298ZM2710.3917 80.5842H2770.6451V519.8056H2710.3917V80.5842ZM2829.6548 80.5842H2889.9082V519.8056H2829.6548V80.5842ZM3094.3717 407.1957C3042.0023 407.1957 3001.6938 388.082 2973.8498 349.8514 2950.9958 320.3481 2939.7751 283.7798 2939.7751 240.1497 2939.7751 133.7727 2994.6289 80.5842 3104.7612 80.5842H3230.6706V143.3311H3104.7612C3071.5146 143.3311 3047.0013 147.4869 3031.1911 156.2111 3015.411 166.6007 3005.8496 184.0521 3002.525 208.5685H3238.5607V239.7341C3238.5607 277.9647 3229.0143 312.0364 3209.8915 341.5397 3184.9566 385.5885 3146.711 407.1957 3094.3717 407.1957ZM3002.525 271.3154C3012.9115 319.9325 3043.6586 344.4488 3094.3717 344.4488 3136.3214 344.4488 3162.5211 319.9325 3172.9107 271.3154H3002.525Z"  horiz-adv-x="3677" vert-adv-y="1024"  />

      
      <glyph glyph-name="sucess_new" unicode="&#xE027;" d="M512-148C759.424-148 960 52.576 960 300 960 547.4236 759.424 748 512 748 264.5764 748 64 547.4236 64 300 64 52.576 264.5764-148 512-148ZM475.0251 128.7915C460.0277 113.8027 435.7163 113.8069 420.7245 128.8L268.7292 280.8043 323.0366 335.1104 447.8848 210.2507 692.9365 455.1693 747.2256 400.8491 475.0251 128.7915Z"  horiz-adv-x="1024" vert-adv-y="1024"  />

      
      <glyph glyph-name="viber" unicode="&#xE028;" d="M666.8629 390.2404C666.8459 387.0562 668.0192 383.9808 670.1483 381.6128 672.2773 379.2448 675.2128 377.76 678.3829 377.44 681.5573 377.5936 684.5611 378.9248 686.8096 381.1733 689.0539 383.4219 690.3851 386.4256 690.5429 389.6004 692.4843 433.0718 677.3205 475.575 648.3029 508.0004 616.3968 541.187 572.7189 560.4966 526.7029 561.7604 523.4773 561.7604 520.384 560.4791 518.1013 558.199 515.8229 555.9185 514.5429 552.8256 514.5429 549.6004 514.5429 546.3753 515.8229 543.2823 518.1013 541.0018 520.384 538.7217 523.4773 537.4404 526.7029 537.4404 546.2229 537.0974 565.4869 532.9071 583.3856 525.1102 601.2885 517.3129 617.4763 506.0617 631.0229 492.0004 643.392 478.2276 652.9237 462.1504 659.0763 444.6895 665.2245 427.2282 667.8699 408.7253 666.8629 390.2404ZM505.6171 600.1638C535.1893 600.5525 564.544 595.0993 592 584.1165 619.456 573.1337 644.4757 556.838 665.6171 536.1638 687.3344 513.2599 704.1963 486.2029 715.1957 456.6187 726.1952 427.034 731.0976 395.5319 729.6171 364.0043 729.7835 360.8896 731.136 357.9584 733.3973 355.8165 735.6629 353.6747 738.6624 352.48 741.7771 352.4843 743.3771 352.3989 744.9728 352.6293 746.4832 353.1584 747.9893 353.6917 749.3803 354.5195 750.5707 355.5861 751.7568 356.6571 752.7253 357.9541 753.4123 359.3963 754.0992 360.8427 754.496 362.4043 754.5771 364.0043 756.416 399.2644 750.9419 434.5237 738.496 467.5661 726.0501 500.608 706.9013 530.7183 682.2571 556.0038 634.7435 601.277 571.2341 625.8974 505.6171 624.4838 502.4427 624.329 499.4389 622.9978 497.1904 620.7501 494.9461 618.5024 493.6149 615.4991 493.4571 612.3238 493.4571 609.0991 494.7413 606.0062 497.0197 603.7257 499.3024 601.4451 502.3915 600.1638 505.6171 600.1638ZM533.1029 485.5991C533.0133 484.0021 533.2437 482.4034 533.7771 480.8947 534.3104 479.3865 535.1339 477.9977 536.2048 476.809 537.2757 475.6198 538.5685 474.6534 540.0149 473.9657 541.4571 473.2774 543.0229 472.8811 544.6229 472.7991 552.9941 473.3372 561.3867 472.0179 569.1947 468.9357 576.9984 465.853 584.0256 461.0842 589.7771 454.9692 595.5243 448.8542 599.8507 441.5445 602.4448 433.5629 605.0389 425.5812 605.8368 417.1251 604.7829 408.7991 604.9451 405.6866 606.2976 402.7554 608.5632 400.6118 610.8245 398.4678 613.824 397.2749 616.9429 397.2791 618.5685 397.2693 620.1771 397.6038 621.6661 398.2613 623.1552 398.9184 624.4864 399.8835 625.5744 401.0927 626.6624 402.3019 627.4816 403.7278 627.9808 405.277 628.48 406.8258 628.6421 408.4625 628.4629 410.0791 629.184 421.3107 627.5456 432.5687 623.6544 443.1292 619.7589 453.6896 613.7003 463.3182 605.8667 471.3963 598.0288 479.4739 588.5867 485.8219 578.1504 490.0318 567.7141 494.2413 556.5099 496.2197 545.2629 495.8391 542.3445 495.8758 539.5072 494.8617 537.2757 492.9818 535.0443 491.1014 533.5637 488.4813 533.1029 485.5991ZM261.7553 492.0034C274.4691 456.0145 290.5399 421.3018 309.7553 388.3234 326.4073 357.9029 345.6802 328.9963 367.3553 301.9243 378.0279 288.1856 389.5714 275.1424 401.9153 262.8843 414.7153 250.7243 427.5157 239.2043 440.9557 228.3243 468.416 207.0635 497.5232 188.0171 527.9957 171.3643 563.1147 149.984 600.7296 133.0027 639.9957 120.8043 645.2907 119.8827 650.7008 119.8827 655.9957 120.8043H661.7557C675.7675 122.5195 688.8149 128.8213 698.8757 138.7243 713.4763 152.1472 725.9861 167.6779 735.9957 184.8043 740.4203 191.8656 742.144 200.288 740.8512 208.5184 739.5584 216.7531 735.3344 224.2411 728.9557 229.6043 728.9557 229.6043 700.7957 252.6443 687.3557 262.2443 672.1664 271.84 656.3413 280.3904 639.9957 287.8443 632.3157 292.6656 623.1979 294.6624 614.2037 293.4976 605.2139 292.3285 596.9067 288.0661 590.7157 281.4443L575.9957 259.0443C572.6379 255.52 568.5461 252.7808 564.0107 251.0101 559.4795 249.2395 554.6112 248.4885 549.7557 248.8043 512.1579 259.6459 477.8709 279.7376 450.0352 307.2363 422.1969 334.7392 401.693 368.7787 390.3953 406.2434 390.0915 410.947 390.79 415.6612 392.445 420.0747 394.1001 424.4881 396.6737 428.4992 399.9953 431.8434L422.3953 449.7634C429.2779 455.9095 433.7664 464.2961 435.0549 473.4345 436.3435 482.5732 434.3509 491.8729 429.4357 499.6834 420.7996 514.8689 411.401 529.6077 401.2753 543.8434 391.0353 557.2834 368.6353 584.8034 367.9953 584.8034 362.8233 591.2512 355.4368 595.5439 347.2738 596.8452 339.1108 598.1466 330.7558 596.3635 323.8353 591.8434 306.7383 582.3151 291.1987 570.2289 277.7553 556.0034 268.1741 545.3897 261.7463 532.3123 259.1953 518.2434V511.2034C258.3236 505.9055 258.3236 500.5009 259.1953 495.2034L261.7553 492.0034ZM812.16 653.9179C792.32 671.8379 704 726.2379 525.44 726.8779 525.44 726.8779 311.6787 740.9579 205.4387 646.8779 148.7091 578.3625 120.9289 490.429 127.9987 401.7579 127.9987 298.7157 115.1987 100.9557 303.9987 48.4757 303.9987 48.4757 303.9987-98.0843 303.9987-110.8843 303.9987-123.6843 303.9987-126.2443 310.3987-127.5243 313.0244-127.6523 315.6467-127.2043 318.08-126.2101 320.5133-125.216 322.6978-123.6971 324.4787-121.7643 354.5587-91.6843 452.48 25.4357 452.48 25.4357 534.016 19.3856 616.0043 25.6448 695.68 43.9957 747.8741 51.2448 795.8059 76.7637 830.9589 116.0213 866.1163 155.2747 886.2123 205.7237 887.68 258.3957 912.64 460.6379 878.72 596.9579 812.16 653.9179ZM390.3987 406.2379C401.4583 369.0645 421.5748 335.2213 448.9429 307.744 476.3093 280.2624 510.0715 260.0085 547.2 248.7957 552.4693 248.0789 557.8325 248.6336 562.8416 250.4171 567.8549 252.1963 572.3648 255.1531 576 259.0357L593.92 281.4357C600.1109 288.0619 608.4181 292.3243 617.408 293.4891 626.4021 294.6581 635.52 292.6613 643.2 287.8357 658.5216 279.4347 673.2757 270.0267 687.36 259.6757 700.8 250.0757 728.96 227.0357 728.96 227.0357 735.3344 221.6725 739.5627 214.1845 740.8555 205.9541 742.1483 197.7237 740.4245 189.3013 736 182.2357 725.9904 165.1136 713.4805 149.5829 698.88 136.1557 688.8192 126.2528 675.7675 119.9552 661.76 118.2357H652.8C647.5051 117.3184 642.0907 117.3184 636.8 118.2357 600.5248 130.2379 565.7387 146.3445 533.12 166.2357 503.2192 183.7973 474.7563 203.7013 448 225.7557 434.56 236.6357 421.7587 248.1557 408.9587 260.3157 396.6148 272.5781 385.0709 285.6171 374.3987 299.3557 352.7236 326.4277 333.4502 355.3387 316.7987 385.7579 295.0071 419.2777 276.5713 454.8625 261.7587 491.9979 260.887 497.2954 260.887 502.6999 261.7587 507.9979V516.9579C263.3425 531.2098 268.8853 544.7334 277.7587 555.9979 290.9141 570.6261 306.2396 583.1454 323.1987 593.1179 330.1193 597.638 338.4742 599.421 346.6372 598.1197 354.8002 596.8183 362.1867 592.5261 367.3587 586.0779 367.3587 586.0779 390.3987 558.5579 400.6387 545.1179 410.7644 530.8821 420.163 516.1434 428.8 500.9579 433.7152 493.1473 435.7035 483.8477 434.4149 474.7089 433.1264 465.5706 428.6421 457.184 421.7587 451.0379L399.3587 433.1179C395.9791 429.5727 393.4238 425.3252 391.875 420.6788 390.3262 416.0324 389.8223 411.1014 390.3987 406.2379ZM526.08 534.2379C522.8544 534.2379 519.7611 535.5187 517.4784 537.7993 515.2 540.0798 513.92 543.1727 513.92 546.3979 513.92 549.6226 515.2 552.7159 517.4784 554.9961 519.7611 557.2766 522.8544 558.5579 526.08 558.5579 572.096 557.2937 615.7739 537.9844 647.68 504.7979 676.3819 473.376 691.9595 432.1502 691.2 389.5979 691.0421 386.423 689.7109 383.4176 687.4667 381.1733 685.2181 378.9248 682.2144 377.5936 679.04 377.4357 675.8699 377.7557 672.9344 379.2448 670.8053 381.6128 668.672 383.9765 667.5029 387.0537 667.52 390.2379 668.4416 408.7663 665.6939 427.2947 659.4347 444.7582 653.1712 462.2217 643.5243 478.2758 631.04 491.9979 617.4165 506.1346 601.1264 517.4298 583.1083 525.2297 565.0944 533.0291 545.7109 537.1789 526.08 537.4379V534.2379ZM629.12 406.2379C629.2992 404.6208 629.1371 402.9841 628.6379 401.4353 628.1429 399.8865 627.3195 398.4602 626.2315 397.251 625.1435 396.0418 623.8123 395.0767 622.3232 394.4196 620.8341 393.7621 619.2256 393.4276 617.6 393.4379 614.4811 393.4336 611.4816 394.6266 609.2203 396.7701 606.9547 398.9141 605.6021 401.8449 605.44 404.9579 606.4939 413.2838 605.696 421.7399 603.1019 429.7212 600.5077 437.7028 596.1813 445.0125 590.4341 451.1275 584.6827 457.2425 577.6555 462.0117 569.8517 465.094 562.0437 468.1766 553.6555 469.4959 545.28 468.9579 542.0544 468.9579 538.9611 470.2387 536.6784 472.5193 534.4 474.7998 533.12 477.8927 533.12 481.1179 533.12 484.3426 534.4 487.4359 536.6784 489.7161 538.9611 491.9966 542.0544 493.2779 545.28 493.2779 556.2411 493.7148 567.1808 491.9091 577.4251 487.9718 587.6651 484.0346 596.9963 478.0484 604.8469 470.3795 612.6933 462.7106 618.8971 453.5206 623.0699 443.3719 627.2427 433.2233 629.3035 422.3296 629.12 411.3579V406.2379ZM742.4 347.9957C740.4203 347.8976 738.4491 348.2773 736.6485 349.1136 734.8523 349.9456 733.2864 351.2085 732.0875 352.7829 730.8928 354.3616 730.0949 356.2048 729.7749 358.1632 729.4507 360.1173 729.6085 362.1184 730.24 363.9957 731.7205 395.5255 726.8139 427.0276 715.8144 456.6123 704.8192 486.1969 687.9531 513.2535 666.24 536.1579 645.0944 556.8316 620.0747 573.1277 592.6187 584.1101 565.1627 595.0929 535.808 600.5466 506.24 600.1579 503.0144 600.1579 499.9211 601.4391 497.6384 603.7193 495.36 605.9998 494.08 609.0927 494.08 612.3179 494.2336 615.4927 495.5648 618.4964 497.8133 620.7441 500.0619 622.9918 503.0656 624.3226 506.24 624.4779 571.6352 625.7212 634.88 601.1127 682.24 555.9979 706.88 530.7119 726.0288 500.6016 738.4747 467.5597 750.9205 434.5178 756.3947 399.258 754.56 363.9957 754.24 361.0005 752.8192 358.2272 750.5749 356.2176 748.3264 354.2037 745.4123 353.1029 742.4 353.1157V347.9957Z"  horiz-adv-x="1024" vert-adv-y="1024"  />

      
      <glyph glyph-name="whatsapp" unicode="&#xE029;" d="M704 229.6L656.64 252 631.68 264.16C627.9936 266.4 623.8251 267.7141 619.52 268 615.04 268 611.2 268 605.44 259.04L577.28 223.84C575.5264 221.3739 573.2267 219.3429 570.5643 217.9008 567.9019 216.4587 564.9451 215.6437 561.92 215.52H554.88L529.92 226.4C482.6667 251.5648 443.4176 289.4827 416.6413 335.84 413.178 339.7141 411.2631 344.7275 411.2631 349.92 411.2631 355.1168 413.178 360.1301 416.6413 364 422.5293 370.3232 428.0832 376.9451 433.28 383.84 436.9579 387.2866 439.6203 391.6745 440.9728 396.5274 442.3253 401.3798 442.3211 406.5114 440.96 411.3621 431.5733 439.0955 420.6946 465.9755 408.3213 492.0021 407.6868 493.8449 406.6765 495.5358 405.3547 496.9681 404.0324 498.4 402.4277 499.5422 400.6413 500.3221 395.7346 504.087 390.0497 506.7106 384.0013 508.0021 376.8427 508.1314 369.7348 506.7763 363.1258 504.0226 356.5171 501.2689 350.5502 497.1759 345.6013 492.0021 327.3643 473.9635 315.4052 450.5429 311.4876 425.1925 307.5699 399.8426 311.9006 373.9029 323.8413 351.2 364.6537 270.5984 428.3221 203.8165 506.88 159.2 543.8635 137.9136 585.2544 125.4293 627.84 122.72H631.68 645.12C664.6571 125.3141 682.7008 134.56 696.2219 148.896 709.7429 163.232 717.9136 181.7877 719.36 201.44 720.5632 204.2816 721.1093 207.3579 720.9557 210.4384 720.8021 213.5189 719.9573 216.5227 718.4811 219.232 717.0048 221.9371 714.9355 224.2752 712.4267 226.0715 709.9179 227.8677 707.0379 229.0752 704 229.6ZM855.68 475.9991C824.3371 539.6041 775.8592 593.1947 715.7035 630.7349 655.5477 668.2752 586.1077 688.2743 515.2 688.4791 459.7376 688.4838 404.9365 676.4753 354.56 653.2791 296.6007 627.8404 246.138 587.9552 208 537.4391 164.1297 480.2116 137.6875 411.5499 131.84 339.68 124.9139 266.1184 139.3583 192.1173 173.44 126.56 175.4854 121.9221 176.5419 116.9088 176.5419 111.84 176.5419 106.7712 175.4854 101.7579 173.44 97.12 161.92 56.16 151.04 13.92 139.52-26.4L135.04-42.4C135.04-51.36 130.56-60.96 128-70.56V-84H135.04L168.32-75.04H175.36L313.6-39.2H325.12C331.3344-39.4688 337.4302-40.992 343.04-43.68 396.0111-67.8635 453.7899-79.6821 512-78.24 531.2896-78.3381 550.5579-76.8405 569.6-73.76 650.0992-62.8459 724.7701-25.7387 782.08 31.84 836.4501 84.9003 873.4848 153.1712 888.32 227.68 906.2144 311.7461 894.6944 399.4116 855.68 475.9991ZM719.36 205.92C717.9136 186.2635 709.7429 167.7077 696.2219 153.3717 682.7008 139.0357 664.6571 129.7941 645.12 127.2H631.68 627.84C585.2544 129.9051 543.8635 142.3893 506.88 163.68 428.3179 208.2923 364.6524 275.0784 323.84 355.68 312.9455 377.8667 309.1887 402.8834 313.0846 427.2926 316.9809 451.7018 328.3396 474.3057 345.6 491.9991 350.5489 497.1733 356.5158 501.2663 363.1245 504.0201 369.7335 506.7738 376.8414 508.1284 384 507.9991 390.9367 507.9735 397.757 506.2131 403.84 502.8791 405.3274 501.4959 406.4977 499.8076 407.2708 497.9294 408.0444 496.0516 408.4023 494.0284 408.32 491.9991 420.6933 464.6925 432.2133 437.1725 442.88 409.4391 444.2411 404.5884 444.2453 399.4573 442.8928 394.6044 441.536 389.7519 438.8779 385.3641 435.2 381.92 429.952 375.6779 424.3977 369.696 418.56 364 415.0967 360.1259 413.1819 355.1125 413.1819 349.92 413.1819 344.7232 415.0967 339.7099 418.56 335.84 445.696 289.8624 485.1584 252.3968 532.48 227.68L557.44 216.8H564.48C567.5051 216.9237 570.4619 217.7344 573.1243 219.1765 575.7867 220.6187 578.0864 222.6539 579.84 225.12L608 260.32C613.76 266.72 617.6 269.28 622.08 269.28 626.3808 268.9941 630.5536 267.6757 634.24 265.44L659.2 253.28 704 229.6C709.1072 228.3755 713.5531 225.2352 716.4117 220.8277 719.2704 216.4203 720.3243 211.0827 719.36 205.92Z"  horiz-adv-x="1024" vert-adv-y="1024"  />

      
      <glyph glyph-name="MessageFill" unicode="&#xE02A;" d="M512.1621 748C434.816 748.0171 358.7814 728.0085 291.4624 689.9226 224.1429 651.8362 167.831 596.9702 128.0077 530.6641 88.1843 464.358 66.2054 388.8708 64.2116 311.5499 62.2174 234.2293 80.2752 157.7109 116.6281 89.44L67.7355-57.2352C63.686-69.3824 63.098-82.4128 66.0382-94.8715 68.9788-107.3301 75.331-118.7264 84.3827-127.776 93.4349-136.8299 104.829-143.1829 117.2881-146.1227 129.7476-149.0624 142.7793-148.4736 154.9235-144.4245L301.6004-95.5328C361.6828-127.4901 428.2539-145.3376 496.2645-147.7227 564.2752-150.112 631.936-136.9707 694.1099-109.3056 756.288-81.6405 811.3408-40.1728 855.0955 11.9488 898.8501 64.0704 930.1589 125.4763 946.6411 191.5029 963.1189 257.5253 964.3435 326.4405 950.2165 393.0103 936.0853 459.5797 906.9781 522.0557 865.1008 575.6958 823.2192 629.3363 769.6725 672.7309 708.5184 702.586 647.3643 732.4412 580.2112 747.9723 512.1621 748ZM322.6219 248.3093C312.3981 248.3093 302.4038 251.3387 293.9029 257.0176 285.4025 262.7008 278.7767 270.7733 274.8642 280.2197 270.9517 289.6619 269.9281 300.0555 271.9228 310.0864 273.9174 320.1131 278.8407 329.3248 286.0698 336.5525 293.2992 343.7803 302.5097 348.704 312.5372 350.7008 322.5643 352.6933 332.9579 351.6693 342.4034 347.7568 351.849 343.8443 359.9223 337.2181 365.6026 328.7189 371.2823 320.2197 374.3142 310.2229 374.3142 300 374.3142 286.2912 368.8678 273.1413 359.174 263.4475 349.4797 253.7536 336.3315 248.3093 322.6219 248.3093ZM512.1621 248.3093C501.9349 248.3093 491.9424 251.3387 483.4432 257.0176 474.9397 262.7008 468.3136 270.7733 464.4011 280.2197 460.4885 289.6619 459.4645 300.0555 461.4613 310.0864 463.4539 320.1131 468.3776 329.3248 475.6096 336.5525 482.8373 343.7803 492.0491 348.704 502.0757 350.7008 512.1024 352.6933 522.496 351.6693 531.9424 347.7568 541.3888 343.8443 549.4613 337.2181 555.1403 328.7189 560.8192 320.2197 563.8528 310.2229 563.8528 300 563.8528 286.2912 558.4085 273.1413 548.7104 263.4475 539.0165 253.7536 525.8709 248.3093 512.1621 248.3093ZM701.7003 248.3093C691.4731 248.3093 681.4805 251.3387 672.9813 257.0176 664.4779 262.7008 657.8517 270.7733 653.9392 280.2197 650.0309 289.6619 649.0069 300.0555 650.9995 310.0864 652.9963 320.1131 657.9157 329.3248 665.1477 336.5525 672.3755 343.7803 681.5872 348.704 691.6139 350.7008 701.6405 352.6933 712.0341 351.6693 721.4805 347.7568 730.9269 343.8443 738.9995 337.2181 744.6784 328.7189 750.3573 320.2197 753.3909 310.2229 753.3909 300 753.3909 286.2912 747.9467 273.1413 738.2528 263.4475 728.5547 253.7536 715.4091 248.3093 701.7003 248.3093Z"  horiz-adv-x="1024" vert-adv-y="1024"  />

      

  </font>
</defs>
</svg>
